Torrent Details

Once Upon a Deadpool (2018) x 800 (1080p) 5 1 - 2 0 x264 Phun Psyz
Once Upon a Deadpool (2018) x 800 (1080p) 5 1 - 2 0 x264 Phun Psyz
Size2.3 GB in 1 file
ReleasesAdded on 01/15/19 at 5:14pm into the Movies category by Unknown.
Status15 seeds & 4 peers.
Hashb7f513e958f9cba3838e61d8c341949b8d6c38bb
Rating
  • YourBT Visitors

Status This torrent has been verified.
*

Torrent Description

www.imdb.com/news/ni62310389



Deadpool (Ryan Reynolds) kidnaps Fred Savage in order to tell him a sanitized version of the events depicted in Deadpool 2. Review: Despite the clever trailers and online buzz, which suggested this was something more than a toned-down version of Deadpool 2 with a little filler



Source: FGT (Web)



















Format                      : MPEG-4

Format profile              : Base Media / Version 2

Codec ID                    : mp42 (isom/iso2/avc1/mp41)

File size                   : 2.28 GiB

Duration                    : 1 h 58 min

Overall bit rate mode       : Variable

Overall bit rate            : 2 759 kb/s



Video

ID                          : 1

Format                      : AVC

Format/Info                 : Advanced Video Codec

Format profile              : [email protected]

Format settings             : CABAC / 1 Ref Frames

Format settings, CABAC      : Yes

Format settings, ReFrames   : 1 frame

Codec ID                    : avc1

Codec ID/Info               : Advanced Video Coding

Duration                    : 1 h 58 min

Bit rate                    : 2 276 kb/s

Width                       : 1 916 pixels

Height                      : 800 pixels

Display aspect ratio        : 2.40:1

Frame rate mode             : Variable

Frame rate                  : 23.976 (24000/1001) FPS

Minimum frame rate          : 23.974 FPS

Maximum frame rate          : 23.981 FPS

Color space                 : YUV

Chroma subsampling          : 4:2:0

Bit depth                   : 8 bits

Scan type                   : Progressive

Bits/(Pixel*Frame)          : 0.062

Stream size                 : 1.88 GiB (82%)

Writing library             : x264 core 155 r2901 7d0ff22



Audio #1

ID                          : 2

Format                      : AC-3

Format/Info                 : Audio Coding 3

Commercial name             : Dolby Digital

Codec ID                    : ac-3

Duration                    : 1 h 57 min

Bit rate mode               : Constant

Bit rate                    : 320 kb/s

Channel(s)                  : 6 channels

Channel layout              : L R C LFE Ls Rs

Sampling rate               : 48.0 kHz

Frame rate                  : 31.250 FPS (1536 SPF)

Bit depth                   : 16 bits

Compression mode            : Lossy

Stream size                 : 269 MiB (12%)

Title                       : Surround / Surround

Language                    : English



Audio #2

ID                          : 3

Format                      : AAC LC

Format/Info                 : Advanced Audio Codec Low Complexity

Codec ID                    : mp4a-40-2

Duration                    : 1 h 57 min

Bit rate mode               : Variable

Bit rate                    : 160 kb/s

Channel(s)                  : 2 channels

Channel layout              : L R

Sampling rate               : 48.0 kHz

Frame rate                  : 46.875 FPS (1024 SPF)

Compression mode            : Lossy

Stream size                 : 135 MiB (6%)

Title                       : Stereo / Stereo

Language                    : English



Similar Torrents

No Similar Torrents Found

If we find similar torrents, we normally show them right here. We couldn't find anything for "".

Torrent Trackers

TRACKER URLSEEDSPEERS
Onlineudp://tracker.coppersurfer.tk:6969/announce154
Onlineudp://tracker.pirateparty.gr:6969/announce134
Onlineudp://tracker.opentrackr.org:1337/announce84
Onlineudp://tracker.zer0day.to:1337/announce84
Onlineudp://mgtracker.org:6969/announce31
Onlineudp://tracker.open-internet.nl:6969/announce00

Files inside this torrent

FILENAMESIZE
icon Once Upon a Deadpool (2018) x 800 (1080p) 5.1 - 2.0 x264 Phun Psyz.mp42.3 GB